Rss
Calendar
«    July 2019    »
MonTueWedThuFriSatSun
1234567
891011121314
15161718192021
22232425262728
293031 
Friends of the site
» » Natpuna Ennanu Theriyuma (2019) Tamil - 1080p - WEB-DL - AVC - DD5.1 - ESub-BWT
  • Author: wroser
  • |
  • Comments: 0
  • |
  • Views: 34
Natpuna Ennanu Theriyuma (2019) Tamil - 1080p - WEB-DL - AVC - DD5.1 - ESub-BWT





Format                      : MPEG-4
Format profile              : Base Media / Version 2
Codec ID                    : mp42 (mp42/mp41)
File size                   : 7.43 GiB
Duration                    : 2 h 1 min
Overall bit rate mode       : Variable
Overall bit rate            : 8 769 kb/s
Encoded date                : UTC 2019-06-20 19:52:21
Tagged date                 : UTC 2019-06-20 19:59:50
TIM                         : 00:00:00:00
TSC                         : 24
TSZ                         : 1

Video
ID                          : 1
Format                      : AVC
Format/Info                 : Advanced Video Codec
Format profile              : High@L4.1
Format settings             : CABAC / 4 Ref Frames
Format settings, CABAC      : Yes
Format settings, Reference  : 4 frames
Codec ID                    : avc1
Codec ID/Info               : Advanced Video Coding
Duration                    : 2 h 1 min
Bit rate mode               : Variable
Bit rate                    : 8 255 kb/s
Maximum bit rate            : 12.0 Mb/s
Width                       : 1 920 pixels
Height                      : 1 080 pixels
Display aspect ratio        : 16:9
Frame rate mode             : Constant
Frame rate                  : 24.000 FPS
Color space                 : YUV
Chroma subsampling          : 4:2:0
Bit depth                   : 8 bits
Scan type                   : Progressive
Bits/(Pixel*Frame)          : 0.166
Stream size                 : 7.00 GiB (94%)
Language                    : English
Encoded date                : UTC 2019-06-20 19:52:21
Tagged date                 : UTC 2019-06-20 19:52:21
Color range                 : Limited
Color primaries             : BT.709
Transfer characteristics    : BT.709
Matrix coefficients         : BT.709
Codec configuration box     : avcC

Audio
ID                          : 2
Format                      : AC-3
Format/Info                 : Audio Coding 3
Commercial name             : Dolby Digital
Codec ID                    : ac-3
Duration                    : 2 h 1 min
Source duration             : 2 h 1 min
Bit rate mode               : Constant
Bit rate                    : 512 kb/s
Channel(s)                  : 6 channels
Channel layout              : L R C LFE Ls Rs
Sampling rate               : 48.0 kHz
Frame rate                  : 31.250 FPS (1536 SPF)
Bit depth                   : 16 bits
Compression mode            : Lossy
Stream size                 : 444 MiB (6%)
Source stream size          : 444 MiB (6%)
Language                    : English
Service kind                : Complete Main
Encoded date                : UTC 2019-06-20 19:52:21
Tagged date                 : UTC 2019-06-20 19:52:21



Natpuna Ennanu Theriyuma (2019) Tamil - 1080p - WEB-DL - AVC - DD5.1 - ESub-BWT
Natpuna Ennanu Theriyuma (2019) Tamil - 1080p - WEB-DL - AVC - DD5.1 - ESub-BWT
Natpuna Ennanu Theriyuma (2019) Tamil - 1080p - WEB-DL - AVC - DD5.1 - ESub-BWT
Natpuna Ennanu Theriyuma (2019) Tamil - 1080p - WEB-DL - AVC - DD5.1 - ESub-BWT
Natpuna Ennanu Theriyuma (2019) Tamil - 1080p - WEB-DL - AVC - DD5.1 - ESub-BWT
Natpuna Ennanu Theriyuma (2019) Tamil - 1080p - WEB-DL - AVC - DD5.1 - ESub-BWT
SINGLE DIRECT FAST LINKS

https://www.heroupload.com/a92142809e1c80db/Natpuna.Ennanu.Theriyuma.2019.Tamil.WEB-DL.1080p.AVC.DD5.1.ESub-BWT.mp4


1GB LINKS



https://www.heroupload.com/9014dd9a972ed20a/Natpuna.Ennanu.Theriyuma.2019.Tamil.WEB-DL.1080p.AVC.DD5.1.ESub-BWT.part1.rar
https://www.heroupload.com/0360c9f7c587e521/Natpuna.Ennanu.Theriyuma.2019.Tamil.WEB-DL.1080p.AVC.DD5.1.ESub-BWT.part2.rar
https://www.heroupload.com/ab6e8e45f275a78c/Natpuna.Ennanu.Theriyuma.2019.Tamil.WEB-DL.1080p.AVC.DD5.1.ESub-BWT.part3.rar
https://www.heroupload.com/fc7104939e69c438/Natpuna.Ennanu.Theriyuma.2019.Tamil.WEB-DL.1080p.AVC.DD5.1.ESub-BWT.part4.rar
https://www.heroupload.com/ca0cb678e6023d4f/Natpuna.Ennanu.Theriyuma.2019.Tamil.WEB-DL.1080p.AVC.DD5.1.ESub-BWT.part5.rar
https://www.heroupload.com/398f7108647a908d/Natpuna.Ennanu.Theriyuma.2019.Tamil.WEB-DL.1080p.AVC.DD5.1.ESub-BWT.part6.rar
https://www.heroupload.com/859e65e33c60bc07/Natpuna.Ennanu.Theriyuma.2019.Tamil.WEB-DL.1080p.AVC.DD5.1.ESub-BWT.part7.rar
https://www.heroupload.com/6ae37a80de71b028/Natpuna.Ennanu.Theriyuma.2019.Tamil.WEB-DL.1080p.AVC.DD5.1.ESub-BWT.part8.rar
https://www.heroupload.com/2f0f1027cde95b8b/Natpuna.Ennanu.Theriyuma.2019.Tamil.WEB-DL.1080p.AVC.DD5.1.ESub-BWT.srt


Buy Premium From My Links & Support Me

Add a comment

Name:* E-Mail:*
Bold Italic Underline Strike | Align left Center Align right | Insert smilies Insert link URLInsert protected URL Select color | Add Hidden Text Insert Quote Convert selected text from selection to Cyrillic (Russian) alphabet Insert spoiler
Enter the code below: *