Rss
Calendar
«    July 2019    »
MonTueWedThuFriSatSun
1234567
891011121314
15161718192021
22232425262728
293031 
Friends of the site
» » Dharma Durai (2016) 720p UNCUT HDRip x264 [Dual Audio][Hindi+Tamil] BHD
  • Author: wroser
  • |
  • Comments: 0
  • |
  • Views: 22
Dharma Durai (2016) 720p UNCUT HDRip x264 [Dual Audio][Hindi+Tamil] BHD





Video
ID : 1
Format : AVC
Format/Info : Advanced Video Codec
Format profile : High@L5.1
Format settings : CABAC / 8 Ref Frames
Format settings, CABAC : Yes
Format settings, RefFrames : 8 frames
Codec ID : V_MPEG4/ISO/AVC
Duration : 2 h 19 min
Width : 1 280 pixels
Height : 544 pixels
Display aspect ratio : 2.35:1
Frame rate mode : Constant
Frame rate : 25.000 FPS
Color space : YUV
Chroma subsampling : 4:2:0
Bit depth : 8 bits
Scan type : Progressive
Bits/(Pixel*Frame) : 0.076
Stream size : 1.29 GiB (81%)
Writing library : x264 core
Default : Yes
Forced : No

Audio #1
ID : 2
Format : AC-3
Format/Info : Audio Coding 3
Commercial name : Dolby Digital
Codec ID : A_AC3
Duration : 2 h 19 min
Bit rate mode : Constant
Bit rate : 192 kb/s
Channel(s) : 2 channels
Channel layout : L R
Sampling rate : 48.0 kHz
Frame rate : 31.250 FPS (1536 SPF)
Bit depth : 16 bits
Compression mode : Lossy
Stream size : 191 MiB (12%)
Language : Hindi
Service kind : Complete Main
Default : Yes
Forced : Yes

Audio #2
ID : 3
Format : AAC LC
Format/Info : Advanced Audio Codec Low Complexity
Codec ID : A_AAC-2
Duration : 2 h 19 min
Bit rate : 126 kb/s
Channel(s) : 2 channels
Channel layout : L R
Sampling rate : 44.1 kHz
Frame rate : 43.066 FPS (1024 SPF)
Compression mode : Lossy
Stream size : 125 MiB (8%)
Language : Tamil
Default : No
Forced : No



Dharma Durai (2016) 720p UNCUT HDRip x264 [Dual Audio][Hindi+Tamil] BHD
Dharma Durai (2016) 720p UNCUT HDRip x264 [Dual Audio][Hindi+Tamil] BHD
Dharma Durai (2016) 720p UNCUT HDRip x264 [Dual Audio][Hindi+Tamil] BHD
Dharma Durai (2016) 720p UNCUT HDRip x264 [Dual Audio][Hindi+Tamil] BHD
Dharma Durai (2016) 720p UNCUT HDRip x264 [Dual Audio][Hindi+Tamil] BHD
Dharma Durai (2016) 720p UNCUT HDRip x264 [Dual Audio][Hindi+Tamil] BHD
Dharma Durai (2016) 720p UNCUT HDRip x264 [Dual Audio][Hindi+Tamil] BHD
Dharma Durai (2016) 720p UNCUT HDRip x264 [Dual Audio][Hindi+Tamil] BHD
Dharma Durai (2016) 720p UNCUT HDRip x264 [Dual Audio][Hindi+Tamil] BHD
Dharma Durai (2016) 720p UNCUT HDRip x264 [Dual Audio][Hindi+Tamil] BHD
SINGLE DIRECT FAST LINKS 1GB LINKS


https://www.heroupload.com/e89b072341a5391e/Dharma.Durai.2016.720p.UNCUT.HDRip.x264.Hindi.D.2.0+Tamil.DD2.0-BHD.mkv



Buy Premium From My Links & Support Me

Add a comment

Name:* E-Mail:*
Bold Italic Underline Strike | Align left Center Align right | Insert smilies Insert link URLInsert protected URL Select color | Add Hidden Text Insert Quote Convert selected text from selection to Cyrillic (Russian) alphabet Insert spoiler
Enter the code below: *