Rss
Calendar
«    August 2019    »
MonTueWedThuFriSatSun
 1234
567891011
12131415161718
19202122232425
262728293031 
Friends of the site
» » Kadhal Munnetra Kazhagam (2019) Tamil - 1080p - WEB-DL - AVC - AAC - ESub-BWT
  • Author: wroser
  • |
  • Comments: 0
  • |
  • Views: 34
Kadhal Munnetra Kazhagam (2019) Tamil - 1080p - WEB-DL - AVC - AAC - ESub-BWT




Format                      : MPEG-4
Format profile              : Base Media
Codec ID                    : isom (isom/iso2/avc1/mp41)
File size                   : 3.38 GiB
Duration                    : 1 h 53 min
Overall bit rate mode       : Variable
Overall bit rate            : 4 249 kb/s
Writing application         : Lavf57.41.100

Video
ID                          : 1
Format                      : AVC
Format/Info                 : Advanced Video Codec
Format profile              : High@L4.1
Format settings             : CABAC / 4 Ref Frames
Format settings, CABAC      : Yes
Format settings, Reference  : 4 frames
Codec ID                    : avc1
Codec ID/Info               : Advanced Video Coding
Duration                    : 1 h 53 min
Bit rate                    : 4 118 kb/s
Nominal bit rate            : 5 000 kb/s
Width                       : 1 920 pixels
Height                      : 1 080 pixels
Display aspect ratio        : 16:9
Frame rate mode             : Constant
Frame rate                  : 25.000 FPS
Color space                 : YUV
Chroma subsampling          : 4:2:0
Bit depth                   : 8 bits
Scan type                   : Progressive
Bits/(Pixel*Frame)          : 0.079
Stream size                 : 3.28 GiB (97%)
Writing library             : x264 core 148 r2694 3b70645
Encoding settings           : cabac=1 / ref=3 / deblock=1:0:0 / analyse=0x3:0x113 / me=hex / subme=7 / psy=1 / psy_rd=1.00:0.00 / mixed_ref=1 / me_range=16 / chroma_me=1 / trellis=1 / 8x8dct=1 / cqm=0 / deadzone=21,11 / fast_pskip=1 / chroma_qp_offset=-2 / threads=34 / lookahead_threads=5 / sliced_threads=0 / nr=0 / decimate=1 / interlaced=0 / bluray_compat=0 / constrained_intra=0 / bframes=3 / b_pyramid=2 / b_adapt=1 / b_bias=0 / direct=1 / weightb=1 / open_gop=0 / weightp=2 / keyint=50 / keyint_min=26 / scenecut=0 / intra_refresh=0 / rc_lookahead=40 / rc=cbr / mbtree=1 / bitrate=5000 / ratetol=1.0 / qcomp=0.60 / qpmin=0 / qpmax=69 / qpstep=4 / vbv_maxrate=5000 / vbv_bufsize=5000 / nal_hrd=none / filler=0 / ip_ratio=1.40 / aq=1:1.00
Language                    : English
Tagged date                 : UTC 2019-07-11 23:04:37
Codec configuration box     : avcC

Audio
ID                          : 2
Format                      : AAC LC
Format/Info                 : Advanced Audio Codec Low Complexity
Codec ID                    : mp4a-40-2
Duration                    : 1 h 53 min
Source duration             : 1 h 53 min
Bit rate mode               : Variable
Bit rate                    : 128 kb/s
Channel(s)                  : 2 channels
Channel layout              : L R
Sampling rate               : 48.0 kHz
Frame rate                  : 46.875 FPS (1024 SPF)
Compression mode            : Lossy
Stream size                 : 104 MiB (3%)
Source stream size          : 104 MiB (3%)
Language                    : English
Default                     : Yes
Alternate group             : 1
Tagged date                 : UTC 2019-07-11 23:04:37

Other
ID                          : 3
Type                        : Time code
Format                      : QuickTime TC
Duration                    : 1 h 53 min
Time code of first frame    : 01:00:00:00
Time code, striped          : Yes
Default                     : No
Tagged date                 : UTC 2019-07-11 23:04:37




Kadhal Munnetra Kazhagam (2019) Tamil - 1080p - WEB-DL - AVC - AAC - ESub-BWT
Kadhal Munnetra Kazhagam (2019) Tamil - 1080p - WEB-DL - AVC - AAC - ESub-BWT
Kadhal Munnetra Kazhagam (2019) Tamil - 1080p - WEB-DL - AVC - AAC - ESub-BWT[
Kadhal Munnetra Kazhagam (2019) Tamil - 1080p - WEB-DL - AVC - AAC - ESub-BWT
Kadhal Munnetra Kazhagam (2019) Tamil - 1080p - WEB-DL - AVC - AAC - ESub-BWT
Kadhal Munnetra Kazhagam (2019) Tamil - 1080p - WEB-DL - AVC - AAC - ESub-BWT
Kadhal Munnetra Kazhagam (2019) Tamil - 1080p - WEB-DL - AVC - AAC - ESub-BWT
Kadhal Munnetra Kazhagam (2019) Tamil - 1080p - WEB-DL - AVC - AAC - ESub-BWT
Kadhal Munnetra Kazhagam (2019) Tamil - 1080p - WEB-DL - AVC - AAC - ESub-BWTKadhal Munnetra Kazhagam (2019) Tamil - 1080p - WEB-DL - AVC - AAC - ESub-BWT


SINGLE DIRECT FAST LINKS

https://www.heroupload.com/1974001e92406450/Kaadhal.Munnetra.Kazhagam.2019.Tamil.WEB-DL.1080p.AVC.UNTOUCHED.AAC-BWT.mp4


1GB LINKS



https://www.heroupload.com/caf5396467b15461/Kaadhal.Munnetra.Kazhagam.2019.Tamil.WEB-DL.1080p.AVC.UNTOUCHED.AAC-BWT.part1.rar
https://www.heroupload.com/3b1b45561cc1aea3/Kaadhal.Munnetra.Kazhagam.2019.Tamil.WEB-DL.1080p.AVC.UNTOUCHED.AAC-BWT.part2.rar
https://www.heroupload.com/3c647dc0edfa8a17/Kaadhal.Munnetra.Kazhagam.2019.Tamil.WEB-DL.1080p.AVC.UNTOUCHED.AAC-BWT.part3.rar
https://www.heroupload.com/8b299639819eeab7/Kaadhal.Munnetra.Kazhagam.2019.Tamil.WEB-DL.1080p.AVC.UNTOUCHED.AAC-BWT.part4.rar




Buy Premium From My Links & Support Me

Add a comment

Name:* E-Mail:*
Bold Italic Underline Strike | Align left Center Align right | Insert smilies Insert link URLInsert protected URL Select color | Add Hidden Text Insert Quote Convert selected text from selection to Cyrillic (Russian) alphabet Insert spoiler
Enter the code below: *