Rss
Calendar
«    August 2019    »
MonTueWedThuFriSatSun
 1234
567891011
12131415161718
19202122232425
262728293031 
Friends of the site
» » Mera Bharat Mahan (2019) Telugu - 1080p - WEB-DL - AVC - AC3 - ESub-BWT
  • Author: wroser
  • |
  • Comments: 0
  • |
  • Views: 31
Mera Bharat Mahan (2019) Telugu - 1080p - WEB-DL - AVC - AC3 - ESub-BWT





Format                      : Matroska
Format version              : Version 4
File size                   : 4.37 GiB
Duration                    : 2 h 8 min
Overall bit rate            : 4 885 kb/s
Encoded date                : UTC 2019-07-16 12:27:02
Writing application         : mkvmerge v33.1.0 ('Primrose') 32-bit
Writing library             : libebml v1.3.7 + libmatroska v1.5.0

Video
ID                          : 1
Format                      : AVC
Format/Info                 : Advanced Video Codec
Format profile              : High@L4
Format settings             : CABAC / 4 Ref Frames
Format settings, CABAC      : Yes
Format settings, Reference  : 4 frames
Codec ID                    : V_MPEG4/ISO/AVC
Duration                    : 2 h 8 min
Bit rate                    : 4 660 kb/s
Width                       : 1 920 pixels
Height                      : 1 080 pixels
Display aspect ratio        : 16:9
Frame rate mode             : Constant
Frame rate                  : 24.000 FPS
Color space                 : YUV
Chroma subsampling          : 4:2:0
Bit depth                   : 8 bits
Scan type                   : Progressive
Bits/(Pixel*Frame)          : 0.094
Stream size                 : 4.17 GiB (95%)
Language                    : Telugu
Default                     : Yes
Forced                      : No
Color range                 : Limited
Color primaries             : BT.709
Transfer characteristics    : BT.709
Matrix coefficients         : BT.709

Audio
ID                          : 2
Format                      : E-AC-3
Format/Info                 : Enhanced AC-3
Commercial name             : Dolby Digital Plus
Codec ID                    : A_EAC3
Duration                    : 2 h 8 min
Bit rate mode               : Constant
Bit rate                    : 224 kb/s
Channel(s)                  : 2 channels
Channel layout              : L R
Sampling rate               : 48.0 kHz
Frame rate                  : 31.250 FPS (1536 SPF)
Compression mode            : Lossy
Stream size                 : 205 MiB (5%)
Language                    : Telugu
Service kind                : Complete Main
Default                     : Yes
Forced                      : No

Text
ID                          : 3
Format                      : UTF-8
Codec ID                    : S_TEXT/UTF8
Codec ID/Info               : UTF-8 Plain Text
Duration                    : 2 h 6 min
Bit rate                    : 62 b/s
Count of elements           : 1534



Mera Bharat Mahan (2019) Telugu - 1080p - WEB-DL - AVC - AC3 - ESub-BWT
Mera Bharat Mahan (2019) Telugu - 1080p - WEB-DL - AVC - AC3 - ESub-BWT
Mera Bharat Mahan (2019) Telugu - 1080p - WEB-DL - AVC - AC3 - ESub-BWT
Mera Bharat Mahan (2019) Telugu - 1080p - WEB-DL - AVC - AC3 - ESub-BWTMera Bharat Mahan (2019) Telugu - 1080p - WEB-DL - AVC - AC3 - ESub-BWT
Mera Bharat Mahan (2019) Telugu - 1080p - WEB-DL - AVC - AC3 - ESub-BWT
Mera Bharat Mahan (2019) Telugu - 1080p - WEB-DL - AVC - AC3 - ESub-BWT
Mera Bharat Mahan (2019) Telugu - 1080p - WEB-DL - AVC - AC3 - ESub-BWT

SINGLE DIRECT FAST LINKS

https://www.heroupload.com/8d4068761c1a21d1/Mera.Bharath.Mahan.2019.Telugu.WEB-DL.1080p.AVC.UNTOUCHED.ESub-BWT.mkv


1GB LINKS



https://www.heroupload.com/0206972545138a1d/Mera.Bharath.Mahan.2019.Telugu.WEB-DL.1080p.AVC.UNTOUCHED.ESub-BWT.part1.rar
https://www.heroupload.com/7e6ebe498c5cd5eb/Mera.Bharath.Mahan.2019.Telugu.WEB-DL.1080p.AVC.UNTOUCHED.ESub-BWT.part2.rar
https://www.heroupload.com/2d02c81d560fd147/Mera.Bharath.Mahan.2019.Telugu.WEB-DL.1080p.AVC.UNTOUCHED.ESub-BWT.part3.rar
https://www.heroupload.com/b9df5656761a17a5/Mera.Bharath.Mahan.2019.Telugu.WEB-DL.1080p.AVC.UNTOUCHED.ESub-BWT.part4.rar
https://www.heroupload.com/bd1177a70bb26469/Mera.Bharath.Mahan.2019.Telugu.WEB-DL.1080p.AVC.UNTOUCHED.ESub-BWT.part5.rar






Buy Premium From My Links & Support Me

Add a comment

Name:* E-Mail:*
Bold Italic Underline Strike | Align left Center Align right | Insert smilies Insert link URLInsert protected URL Select color | Add Hidden Text Insert Quote Convert selected text from selection to Cyrillic (Russian) alphabet Insert spoiler
Enter the code below: *