Rss
Calendar
«    August 2019    »
MonTueWedThuFriSatSun
 1234
567891011
12131415161718
19202122232425
262728293031 
Friends of the site
» » Evadu Thakkuva Kadu (2019) Telugu - 1080p - WEB-DL - AVC - DD5.1 - ESub-BWT
  • Author: wroser
  • |
  • Comments: 0
  • |
  • Views: 17
Evadu Thakkuva Kadu (2019) Telugu - 1080p - WEB-DL - AVC - DD5.1 - ESub-BWT





Format                      : Matroska
Format version              : Version 4
File size                   : 6.16 GiB
Duration                    : 1 h 59 min
Overall bit rate            : 7 350 kb/s
Encoded date                : UTC 2019-07-13 11:20:45
Writing application         : mkvmerge v30.1.0 ('Forever And More') 64-bit
Writing library             : libebml v1.3.6 + libmatroska v1.4.9

Video
ID                          : 1
Format                      : AVC
Format/Info                 : Advanced Video Codec
Format profile              : High@L4
Format settings             : CABAC / 4 Ref Frames
Format settings, CABAC      : Yes
Format settings, Reference  : 4 frames
Codec ID                    : V_MPEG4/ISO/AVC
Duration                    : 1 h 59 min
Bit rate                    : 6 708 kb/s
Width                       : 1 920 pixels
Height                      : 800 pixels
Display aspect ratio        : 2.40:1
Frame rate mode             : Constant
Frame rate                  : 24.000 FPS
Color space                 : YUV
Chroma subsampling          : 4:2:0
Bit depth                   : 8 bits
Scan type                   : Progressive
Bits/(Pixel*Frame)          : 0.182
Stream size                 : 5.62 GiB (91%)
Default                     : Yes
Forced                      : No
Color range                 : Limited
Color primaries             : BT.709
Transfer characteristics    : BT.709
Matrix coefficients         : BT.709

Audio
ID                          : 2
Format                      : E-AC-3
Format/Info                 : Enhanced AC-3
Commercial name             : Dolby Digital Plus
Codec ID                    : A_EAC3
Duration                    : 1 h 59 min
Bit rate mode               : Constant
Bit rate                    : 640 kb/s
Channel(s)                  : 6 channels
Channel layout              : L R C LFE Ls Rs
Sampling rate               : 48.0 kHz
Frame rate                  : 31.250 FPS (1536 SPF)
Compression mode            : Lossy
Stream size                 : 549 MiB (9%)
Service kind                : Complete Main
Default                     : Yes
Forced                      : No

Text
ID                          : 3
Format                      : UTF-8
Codec ID                    : S_TEXT/UTF8
Codec ID/Info               : UTF-8 Plain Text
Duration                    : 1 h 56 min
Bit rate                    : 79 b/s
Count of elements           : 1970
Stream size                 : 68.0 KiB (0%)
Title                       : SDH
Language                    : English
Default                     : No
Forced                      : No


Evadu Thakkuva Kadu (2019) Telugu - 1080p - WEB-DL - AVC - DD5.1 - ESub-BWT
Evadu Thakkuva Kadu (2019) Telugu - 1080p - WEB-DL - AVC - DD5.1 - ESub-BWT
Evadu Thakkuva Kadu (2019) Telugu - 1080p - WEB-DL - AVC - DD5.1 - ESub-BWT
Evadu Thakkuva Kadu (2019) Telugu - 1080p - WEB-DL - AVC - DD5.1 - ESub-BWT
Evadu Thakkuva Kadu (2019) Telugu - 1080p - WEB-DL - AVC - DD5.1 - ESub-BWT
Evadu Thakkuva Kadu (2019) Telugu - 1080p - WEB-DL - AVC - DD5.1 - ESub-BWT
[img]https://extraimage.net/images/2019/07/13/a0eaa205c2a25639ff834c7e7590596d.png[/IMG
[IMG]https://extraimage.net/images/2019/07/13/cda3683cb7465853e08c1c1fbc0e9e3a.png[/img]
Evadu Thakkuva Kadu (2019) Telugu - 1080p - WEB-DL - AVC - DD5.1 - ESub-BWT
Evadu Thakkuva Kadu (2019) Telugu - 1080p - WEB-DL - AVC - DD5.1 - ESub-BWT

SINGLE DIRECT FAST LINKS

https://www.heroupload.com/20b824b393ac757c/Evadu.Thakkuva.Kadu.2019.Telugu.WEB-DL.1080p.AVC.UNTOUCHED.DD5.1-BWT.mkv


1GB LINKS



https://www.heroupload.com/e783af759487d48c/Evadu.Thakkuva.Kadu.2019.Telugu.WEB-DL.1080p.AVC.UNTOUCHED.DD5.1-BWT.part1.rar
https://www.heroupload.com/46ff305f79085e0e/Evadu.Thakkuva.Kadu.2019.Telugu.WEB-DL.1080p.AVC.UNTOUCHED.DD5.1-BWT.part2.rar
https://www.heroupload.com/665316bd9fde2903/Evadu.Thakkuva.Kadu.2019.Telugu.WEB-DL.1080p.AVC.UNTOUCHED.DD5.1-BWT.part3.rar
https://www.heroupload.com/735ce12e64f4af5b/Evadu.Thakkuva.Kadu.2019.Telugu.WEB-DL.1080p.AVC.UNTOUCHED.DD5.1-BWT.part4.rar
https://www.heroupload.com/bf78d903a9b2faf6/Evadu.Thakkuva.Kadu.2019.Telugu.WEB-DL.1080p.AVC.UNTOUCHED.DD5.1-BWT.part5.rar
https://www.heroupload.com/8fee1e1b6d515eae/Evadu.Thakkuva.Kadu.2019.Telugu.WEB-DL.1080p.AVC.UNTOUCHED.DD5.1-BWT.part6.rar
https://www.heroupload.com/90f4d4f6b7a56357/Evadu.Thakkuva.Kadu.2019.Telugu.WEB-DL.1080p.AVC.UNTOUCHED.DD5.1-BWT.part7.rar




Buy Premium From My Links & Support Me

Add a comment

Name:* E-Mail:*
Bold Italic Underline Strike | Align left Center Align right | Insert smilies Insert link URLInsert protected URL Select color | Add Hidden Text Insert Quote Convert selected text from selection to Cyrillic (Russian) alphabet Insert spoiler
Enter the code below: *