Rss
Calendar
«    August 2019    »
MonTueWedThuFriSatSun
 1234
567891011
12131415161718
19202122232425
262728293031 
Friends of the site
» » Prema Katha Chitram 2 (2019) Telugu - 1080p - WEB-DL - AVC - AAC - ESub-BWT
  • Author: wroser
  • |
  • Comments: 0
  • |
  • Views: 21
Prema Katha Chitram 2 (2019) Telugu - 1080p - WEB-DL - AVC - AAC - ESub-BWT





Format                      : MPEG-4
Format profile              : Base Media
Codec ID                    : isom (isom/iso2/avc1/mp41)
File size                   : 2.93 GiB
Duration                    : 2 h 13 min
Overall bit rate            : 3 137 kb/s
Writing application         : Lavf58.20.100

Video
ID                          : 1
Format                      : AVC
Format/Info                 : Advanced Video Codec
Format profile              : High@L4
Format settings             : CABAC / 4 Ref Frames
Format settings, CABAC      : Yes
Format settings, Reference  : 4 frames
Codec ID                    : avc1
Codec ID/Info               : Advanced Video Coding
Duration                    : 2 h 13 min
Bit rate                    : 3 000 kb/s
Width                       : 1 920 pixels
Height                      : 1 080 pixels
Display aspect ratio        : 16:9
Frame rate mode             : Constant
Frame rate                  : 24.000 FPS
Color space                 : YUV
Chroma subsampling          : 4:2:0
Bit depth                   : 8 bits
Scan type                   : Progressive
Bits/(Pixel*Frame)          : 0.060
Stream size                 : 2.78 GiB (95%)
Writing library             : x264 core 152 r2851 ba24899
Encoding settings           : cabac=1 / ref=4 / deblock=1:0:0 / analyse=0x3:0x113 / me=hex / subme=8 / psy=1 / psy_rd=1.00:0.00 / mixed_ref=1 / me_range=16 / chroma_me=1 / trellis=2 / 8x8dct=1 / cqm=0 / deadzone=21,11 / fast_pskip=1 / chroma_qp_offset=-2 / threads=10 / lookahead_threads=1 / sliced_threads=0 / nr=0 / decimate=1 / interlaced=0 / bluray_compat=0 / constrained_intra=0 / bframes=0 / weightp=2 / keyint=72 / keyint_min=7 / scenecut=40 / intra_refresh=0 / rc_lookahead=50 / rc=cbr / mbtree=1 / bitrate=3000 / ratetol=1.0 / qcomp=0.90 / qpmin=3 / qpmax=51 / qpstep=8 / vbv_maxrate=3000 / vbv_bufsize=12000 / nal_hrd=none / filler=0 / ip_ratio=1.40 / aq=1:1.00
Language                    : English
Codec configuration box     : avcC

Audio
ID                          : 2
Format                      : AAC LC
Format/Info                 : Advanced Audio Codec Low Complexity
Codec ID                    : mp4a-40-2
Duration                    : 2 h 13 min
Bit rate mode               : Constant
Bit rate                    : 164 kb/s
Channel(s)                  : 2 channels
Channel layout              : L R
Sampling rate               : 44.1 kHz
Frame rate                  : 43.066 FPS (1024 SPF)
Compression mode            : Lossy
Stream size                 : 157 MiB (5%)
Language                    : English
Default                     : Yes
Alternate group             : 1




Prema Katha Chitram 2 (2019) Telugu - 1080p - WEB-DL - AVC - AAC - ESub-BWT
Prema Katha Chitram 2 (2019) Telugu - 1080p - WEB-DL - AVC - AAC - ESub-BWT
Prema Katha Chitram 2 (2019) Telugu - 1080p - WEB-DL - AVC - AAC - ESub-BWT
Prema Katha Chitram 2 (2019) Telugu - 1080p - WEB-DL - AVC - AAC - ESub-BWT
Prema Katha Chitram 2 (2019) Telugu - 1080p - WEB-DL - AVC - AAC - ESub-BWT
Prema Katha Chitram 2 (2019) Telugu - 1080p - WEB-DL - AVC - AAC - ESub-BWT
Prema Katha Chitram 2 (2019) Telugu - 1080p - WEB-DL - AVC - AAC - ESub-BWT
Prema Katha Chitram 2 (2019) Telugu - 1080p - WEB-DL - AVC - AAC - ESub-BWT


SINGLE DIRECT FAST LINKS

https://www.heroupload.com/1cf1a238d0483780/Prema.Katha.Chitram.2.2019.Telugu.WEB-DL.1080p.AVC.UNTOUCHED.AAC.ESub-BWT.mp4


700MB LINKS



https://www.heroupload.com/6815e50980539ead/Prema.Katha.Chitram.2.2019.Telugu.WEB-DL.1080p.AVC.UNTOUCHED.AAC.ESub-BWT.part1.rar
https://www.heroupload.com/681b1bf80f07575b/Prema.Katha.Chitram.2.2019.Telugu.WEB-DL.1080p.AVC.UNTOUCHED.AAC.ESub-BWT.part2.rar
https://www.heroupload.com/1864fbf0e5f6439b/Prema.Katha.Chitram.2.2019.Telugu.WEB-DL.1080p.AVC.UNTOUCHED.AAC.ESub-BWT.part3.rar
https://www.heroupload.com/b0d5dcc9febd31ab/Prema.Katha.Chitram.2.2019.Telugu.WEB-DL.1080p.AVC.UNTOUCHED.AAC.ESub-BWT.part4.rar
https://www.heroupload.com/731d0a94ad15eb70/Prema.Katha.Chitram.2.2019.Telugu.WEB-DL.1080p.AVC.UNTOUCHED.AAC.ESub-BWT.part5.rar




Buy Premium From My Links & Support Me

Add a comment

Name:* E-Mail:*
Bold Italic Underline Strike | Align left Center Align right | Insert smilies Insert link URLInsert protected URL Select color | Add Hidden Text Insert Quote Convert selected text from selection to Cyrillic (Russian) alphabet Insert spoiler
Enter the code below: *