Rss
Calendar
«    August 2019    »
MonTueWedThuFriSatSun
 1234
567891011
12131415161718
19202122232425
262728293031 
Friends of the site
» » F2 Fun and Frustration (2019) Hindi - 1080p - WEB HD - AVC - AAC-Adatiya Exclusive
  • Author: wroser
  • |
  • Comments: 0
  • |
  • Views: 13
F2 Fun and Frustration (2019) Hindi - 1080p - WEB HD - AVC - AAC-Adatiya Exclusive




Format                                   : MPEG-4
Format profile                           : Base Media
Codec ID                                 : isom (isom/iso2/avc1/mp41)
File size                                : 2.09 GiB
Duration                                 : 2 h 13 min
Overall bit rate                         : 2 248 kb/s
Writing application                      : Lavf58.9.100

Video
ID                                       : 1
Format                                   : AVC
Format/Info                              : Advanced Video Codec
Format profile                           : High@L4
Format settings                          : CABAC / 3 Ref Frames
Format settings, CABAC                   : Yes
Format settings, RefFrames               : 3 frames
Codec ID                                 : avc1
Codec ID/Info                            : Advanced Video Coding
Duration                                 : 2 h 13 min
Bit rate                                 : 2 114 kb/s
Width                                    : 1 920 pixels
Height                                   : 1 080 pixels
Display aspect ratio                     : 16:9
Frame rate mode                          : Constant
Frame rate                               : 24.000 FPS
Color space                              : YUV
Chroma subsampling                       : 4:2:0
Bit depth                                : 8 bits
Scan type                                : Progressive
Bits/(Pixel*Frame)                       : 0.042
Stream size                              : 1.97 GiB (94%)
Writing library                          : x264 core 155 r2901 7d0ff22
Color range                              : Limited
Color primaries                          : BT.709
Transfer characteristics                 : BT.709
Matrix coefficients                      : BT.709
Codec configuration box                  : avcC

Audio
ID                                       : 2
Format                                   : AAC LC
Format/Info                              : Advanced Audio Codec Low Complexity
Codec ID                                 : mp4a-40-2
Duration                                 : 2 h 13 min
Bit rate mode                            : Constant
Bit rate                                 : 128 kb/s
Channel(s)                               : 2 channels
Channel layout                           : L R
Sampling rate                            : 44.1 kHz
Frame rate                               : 43.066 FPS (1024 SPF)
Compression mode                         : Lossy
Stream size                              : 122 MiB (6%)
Default                                  : Yes
Alternate group                          : 1


F2 Fun and Frustration (2019) Hindi - 1080p - WEB HD - AVC - AAC-Adatiya Exclusive
SINGLE DIRECT FAST LINKS

https://www.heroupload.com/ec41287296b50c79/F2.2019.Hindi.1080p.WEB-HD.AVC.AAC-Adatiya.mp4


700MB LINKS



https://www.heroupload.com/08700436e11eb5b2/F2.2019.Hindi.1080p.WEB-HD.AVC.AAC-Adatiya.part1.rar
https://www.heroupload.com/dc411f686b78d999/F2.2019.Hindi.1080p.WEB-HD.AVC.AAC-Adatiya.part2.rar
https://www.heroupload.com/a06ccb990550a126/F2.2019.Hindi.1080p.WEB-HD.AVC.AAC-Adatiya.part3.rar
https://www.heroupload.com/878123b315d1711a/F2.2019.Hindi.1080p.WEB-HD.AVC.AAC-Adatiya.part4.rar


Buy Premium From My Links & Support Me

Add a comment

Name:* E-Mail:*
Bold Italic Underline Strike | Align left Center Align right | Insert smilies Insert link URLInsert protected URL Select color | Add Hidden Text Insert Quote Convert selected text from selection to Cyrillic (Russian) alphabet Insert spoiler
Enter the code below: *