Rss
Calendar
«    August 2019    »
MonTueWedThuFriSatSun
 1234
567891011
12131415161718
19202122232425
262728293031 
Friends of the site
» » Nenjamundu Nermaiyundu Odu Raja (2019) Tamil - 1080p - WEB-DL - AVC - DD5.1 - ESub-BW
  • Author: wroser
  • |
  • Comments: 0
  • |
  • Views: 20
Nenjamundu Nermaiyundu Odu Raja (2019) Tamil - 1080p - WEB-DL - AVC - DD5.1 - ESub-BW





Format                      : MPEG-4
Codec ID                    : M4V  (M4V /M4A /mp42/isom)
File size                   : 6.84 GiB
Duration                    : 1 h 57 min
Overall bit rate mode       : Constant
Overall bit rate            : 8 328 kb/s
Encoded date                : UTC 2019-07-03 09:29:05
Tagged date                 : UTC 2019-07-03 09:30:05
Rating                      : None

Video
ID                          : 1
Format                      : AVC
Format/Info                 : Advanced Video Codec
Format profile              : High@L4.2
Format settings             : CABAC / 4 Ref Frames
Format settings, CABAC      : Yes
Format settings, Reference  : 4 frames
Codec ID                    : avc1
Codec ID/Info               : Advanced Video Coding
Duration                    : 1 h 57 min
Source duration             : 1 h 57 min
Bit rate mode               : Constant
Bit rate                    : 7 542 kb/s
Nominal bit rate            : 8 000 kb/s
Width                       : 1 920 pixels
Height                      : 1 080 pixels
Display aspect ratio        : 16:9
Frame rate mode             : Constant
Frame rate                  : 25.000 FPS
Standard                    : PAL
Color space                 : YUV
Chroma subsampling          : 4:2:0
Bit depth                   : 8 bits
Scan type                   : Progressive
Bits/(Pixel*Frame)          : 0.145
Stream size                 : 6.19 GiB (91%)
Source stream size          : 6.47 GiB (95%)
Language                    : English
Encoded date                : UTC 2019-07-03 09:29:05
Tagged date                 : UTC 2019-07-03 09:30:05
Color range                 : Limited
Color primaries             : BT.709
Transfer characteristics    : BT.709
Matrix coefficients         : BT.709
Codec configuration box     : avcC

Audio
ID                          : 2
Format                      : AC-3
Format/Info                 : Audio Coding 3
Commercial name             : Dolby Digital
Codec ID                    : ac-3
Duration                    : 1 h 57 min
Bit rate mode               : Constant
Bit rate                    : 448 kb/s
Channel(s)                  : 6 channels
Channel layout              : L R C LFE Ls Rs
Sampling rate               : 48.0 kHz
Frame rate                  : 31.250 FPS (1536 SPF)
Bit depth                   : 16 bits
Compression mode            : Lossy
Stream size                 : 377 MiB (5%)
Service kind                : Complete Main
Default                     : Yes
Alternate group             : 1
Encoded date                : UTC 2019-07-03 09:29:05
Tagged date                 : UTC 2019-07-03 09:29:09




Nenjamundu Nermaiyundu Odu Raja (2019) Tamil - 1080p - WEB-DL - AVC - DD5.1 - ESub-BW
Nenjamundu Nermaiyundu Odu Raja (2019) Tamil - 1080p - WEB-DL - AVC - DD5.1 - ESub-BW
Nenjamundu Nermaiyundu Odu Raja (2019) Tamil - 1080p - WEB-DL - AVC - DD5.1 - ESub-BW
Nenjamundu Nermaiyundu Odu Raja (2019) Tamil - 1080p - WEB-DL - AVC - DD5.1 - ESub-BW
Nenjamundu Nermaiyundu Odu Raja (2019) Tamil - 1080p - WEB-DL - AVC - DD5.1 - ESub-BW
Nenjamundu Nermaiyundu Odu Raja (2019) Tamil - 1080p - WEB-DL - AVC - DD5.1 - ESub-BW

SINGLE DIRECT FAST LINKS

https://www.heroupload.com/c5820ff4321ba3d5/Nenjamundu.Nermaiyundu.Odu.Raja.2019.1080p.HD.AVC.DD5.1.ESubs.Tamil-BWT.mp4


1GB LINKS


https://www.heroupload.com/6e1946a07d3e3b01/Nenjamundu.Nermaiyundu.Odu.Raja.2019.1080p.HD.AVC.DD5.1.ESubs.Tamil-BWT.part1.rar
https://www.heroupload.com/604e85e30ada8ba0/Nenjamundu.Nermaiyundu.Odu.Raja.2019.1080p.HD.AVC.DD5.1.ESubs.Tamil-BWT.part2.rar
https://www.heroupload.com/6eb64668787eff54/Nenjamundu.Nermaiyundu.Odu.Raja.2019.1080p.HD.AVC.DD5.1.ESubs.Tamil-BWT.part3.rar
https://www.heroupload.com/6602f471373344f5/Nenjamundu.Nermaiyundu.Odu.Raja.2019.1080p.HD.AVC.DD5.1.ESubs.Tamil-BWT.part4.rar
https://www.heroupload.com/eb9cdc856452cad8/Nenjamundu.Nermaiyundu.Odu.Raja.2019.1080p.HD.AVC.DD5.1.ESubs.Tamil-BWT.part5.rar
https://www.heroupload.com/447572d1a4d0df3a/Nenjamundu.Nermaiyundu.Odu.Raja.2019.1080p.HD.AVC.DD5.1.ESubs.Tamil-BWT.part6.rar
https://www.heroupload.com/687152f47792b7e9/Nenjamundu.Nermaiyundu.Odu.Raja.2019.1080p.HD.AVC.DD5.1.ESubs.Tamil-BWT.part7.rar




Buy Premium From My Links & Support Me

Add a comment

Name:* E-Mail:*
Bold Italic Underline Strike | Align left Center Align right | Insert smilies Insert link URLInsert protected URL Select color | Add Hidden Text Insert Quote Convert selected text from selection to Cyrillic (Russian) alphabet Insert spoiler
Enter the code below: *