Rss
Calendar
«    August 2019    »
MonTueWedThuFriSatSun
 1234
567891011
12131415161718
19202122232425
262728293031 
Friends of the site
» » Nenjamundu Nermaiyundu Odu Raja (2019) Tamil - 4K UHD - AVC - DD 5.1 - ESubs-BWT
  • Author: wroser
  • |
  • Comments: 0
  • |
  • Views: 19
Nenjamundu Nermaiyundu Odu Raja (2019) Tamil - 4K UHD - AVC - DD 5.1 - ESubs-BWT




Format                      : MPEG-4
Format profile              : Base Media
Codec ID                    : isom (isom)
File size                   : 9.96 GiB
Duration                    : 1 h 57 min
Overall bit rate mode       : Variable
Overall bit rate            : 12.1 Mb/s
Encoded date                : UTC 2019-07-18 06:57:01
Tagged date                 : UTC 2019-07-18 06:57:01

Video
ID                          : 1
Format                      : HEVC
Format/Info                 : High Efficiency Video Coding
Format profile              : Main@L5@Main
Codec ID                    : hev1
Codec ID/Info               : High Efficiency Video Coding
Duration                    : 1 h 57 min
Bit rate                    : 12.0 Mb/s
Width                       : 3 840 pixels
Height                      : 2 160 pixels
Display aspect ratio        : 16:9
Frame rate mode             : Constant
Frame rate                  : 23.976 (24000/1001) FPS
Standard                    : PAL
Color space                 : YUV
Chroma subsampling          : 4:2:0 (Type 0)
Bit depth                   : 8 bits
Bits/(Pixel*Frame)          : 0.060
Stream size                 : 9.85 GiB (99%)
Encoded date                : UTC 2019-07-18 06:57:01
Tagged date                 : UTC 2019-07-18 06:57:01
Color range                 : Limited
Color primaries             : BT.709
Transfer characteristics    : BT.709
Matrix coefficients         : BT.709
Codec configuration box     : hvcC

Audio
ID                          : 2
Format                      : AAC LC
Format/Info                 : Advanced Audio Codec Low Complexity
Codec ID                    : mp4a-40-2
Duration                    : 1 h 57 min
Bit rate mode               : Variable
Bit rate                    : 128 kb/s
Maximum bit rate            : 133 kb/s
Channel(s)                  : 2 channels
Channel layout              : L R
Sampling rate               : 48.0 kHz
Frame rate                  : 46.875 FPS (1024 SPF)
Compression mode            : Lossy
Stream size                 : 105 MiB (1%)
Encoded date                : UTC 2019-07-18 06:57:01
Tagged date                 : UTC 2019-07-18 06:57:01



Nenjamundu Nermaiyundu Odu Raja (2019) Tamil - 4K UHD - AVC - DD 5.1 - ESubs-BWT
Nenjamundu Nermaiyundu Odu Raja (2019) Tamil - 4K UHD - AVC - DD 5.1 - ESubs-BWT
Nenjamundu Nermaiyundu Odu Raja (2019) Tamil - 4K UHD - AVC - DD 5.1 - ESubs-BWT
Nenjamundu Nermaiyundu Odu Raja (2019) Tamil - 4K UHD - AVC - DD 5.1 - ESubs-BWT
Nenjamundu Nermaiyundu Odu Raja (2019) Tamil - 4K UHD - AVC - DD 5.1 - ESubs-BWT
Nenjamundu Nermaiyundu Odu Raja (2019) Tamil - 4K UHD - AVC - DD 5.1 - ESubs-BWT

SINGLE DIRECT FAST LINKS

https://www.heroupload.com/8751ccd1236e5134/Nenjamundu.Nermaiyundu.Odu.Raja.2019.4K.UHD.AVC.MP4.DD5.1.ESubs.Tamil-BWT.mp4


1GB LINKS


https://www.heroupload.com/23198698f6eb00c0/Nenjamundu.Nermaiyundu.Odu.Raja.2019.4K.UHD.AVC.MP4.DD5.1.ESubs.Tamil-BWT.part01.rar
https://www.heroupload.com/61a8d886b2b18143/Nenjamundu.Nermaiyundu.Odu.Raja.2019.4K.UHD.AVC.MP4.DD5.1.ESubs.Tamil-BWT.part02.rar
https://www.heroupload.com/76c3971751e57e97/Nenjamundu.Nermaiyundu.Odu.Raja.2019.4K.UHD.AVC.MP4.DD5.1.ESubs.Tamil-BWT.part03.rar
https://www.heroupload.com/7fbb05bcbac696cb/Nenjamundu.Nermaiyundu.Odu.Raja.2019.4K.UHD.AVC.MP4.DD5.1.ESubs.Tamil-BWT.part04.rar
https://www.heroupload.com/2bdcdda009d9dc23/Nenjamundu.Nermaiyundu.Odu.Raja.2019.4K.UHD.AVC.MP4.DD5.1.ESubs.Tamil-BWT.part05.rar
https://www.heroupload.com/60791179bc4a4b0d/Nenjamundu.Nermaiyundu.Odu.Raja.2019.4K.UHD.AVC.MP4.DD5.1.ESubs.Tamil-BWT.part06.rar
https://www.heroupload.com/987b8cf51be774a9/Nenjamundu.Nermaiyundu.Odu.Raja.2019.4K.UHD.AVC.MP4.DD5.1.ESubs.Tamil-BWT.part07.rar
https://www.heroupload.com/555c721e09b3ca99/Nenjamundu.Nermaiyundu.Odu.Raja.2019.4K.UHD.AVC.MP4.DD5.1.ESubs.Tamil-BWT.part08.rar
https://www.heroupload.com/0c0aed92e9666aa0/Nenjamundu.Nermaiyundu.Odu.Raja.2019.4K.UHD.AVC.MP4.DD5.1.ESubs.Tamil-BWT.part09.rar
https://www.heroupload.com/6c6eb75290e45643/Nenjamundu.Nermaiyundu.Odu.Raja.2019.4K.UHD.AVC.MP4.DD5.1.ESubs.Tamil-BWT.part10.rar



Buy Premium From My Links & Support Me

Add a comment

Name:* E-Mail:*
Bold Italic Underline Strike | Align left Center Align right | Insert smilies Insert link URLInsert protected URL Select color | Add Hidden Text Insert Quote Convert selected text from selection to Cyrillic (Russian) alphabet Insert spoiler
Enter the code below: *