Rss
Calendar
«    August 2019    »
MonTueWedThuFriSatSun
 1234
567891011
12131415161718
19202122232425
262728293031 
Friends of the site
» » Time To Retaliate: Masoom (2019) Hindi - 1080p - WEB-DL - AVC - DDP5.1 - ESub-BWT
  • Author: wroser
  • |
  • Comments: 0
  • |
  • Views: 22
Time To Retaliate: Masoom (2019) Hindi - 1080p - WEB-DL - AVC - DDP5.1 - ESub-BWT




Format                      : Matroska
Format version              : Version 4
File size                   : 2.34 GiB
Duration                    : 1 h 49 min
Overall bit rate            : 3 056 kb/s
Encoded date                : UTC 2019-07-18 21:45:53
Writing application         : mkvmerge v33.1.0 ('Primrose') 32-bit
Writing library             : libebml v1.3.7 + libmatroska v1.5.0

Video
ID                          : 1
Format                      : AVC
Format/Info                 : Advanced Video Codec
Format profile              : High@L4
Format settings             : CABAC / 4 Ref Frames
Format settings, CABAC      : Yes
Format settings, Reference  : 4 frames
Codec ID                    : V_MPEG4/ISO/AVC
Duration                    : 1 h 49 min
Bit rate                    : 2 414 kb/s
Width                       : 1 920 pixels
Height                      : 816 pixels
Display aspect ratio        : 2.35:1
Frame rate mode             : Constant
Frame rate                  : 24.000 FPS
Color space                 : YUV
Chroma subsampling          : 4:2:0
Bit depth                   : 8 bits
Scan type                   : Progressive
Bits/(Pixel*Frame)          : 0.064
Stream size                 : 1.85 GiB (79%)
Language                    : Hindi
Default                     : Yes
Forced                      : No
Color range                 : Limited
Color primaries             : BT.709
Transfer characteristics    : BT.709
Matrix coefficients         : BT.709

Audio
ID                          : 2
Format                      : E-AC-3
Format/Info                 : Enhanced AC-3
Commercial name             : Dolby Digital Plus
Codec ID                    : A_EAC3
Duration                    : 1 h 49 min
Bit rate mode               : Constant
Bit rate                    : 640 kb/s
Channel(s)                  : 6 channels
Channel layout              : L R C LFE Ls Rs
Sampling rate               : 48.0 kHz
Frame rate                  : 31.250 FPS (1536 SPF)
Compression mode            : Lossy
Stream size                 : 502 MiB (21%)
Language                    : Hindi
Service kind                : Complete Main
Default                     : Yes
Forced                      : No

Text
ID                          : 3
Format                      : UTF-8
Codec ID                    : S_TEXT/UTF8
Codec ID/Info               : UTF-8 Plain Text
Duration                    : 1 h 45 min
Bit rate                    : 42 b/s
Count of elements           : 906
Stream size                 : 32.9 KiB (0%)
Language                    : English
Default                     : Yes
Forced                      : No



Time To Retaliate: Masoom (2019) Hindi - 1080p - WEB-DL - AVC - DDP5.1 - ESub-BWT
Time To Retaliate: Masoom (2019) Hindi - 1080p - WEB-DL - AVC - DDP5.1 - ESub-BWT
Time To Retaliate: Masoom (2019) Hindi - 1080p - WEB-DL - AVC - DDP5.1 - ESub-BWT
Time To Retaliate: Masoom (2019) Hindi - 1080p - WEB-DL - AVC - DDP5.1 - ESub-BWT
Time To Retaliate: Masoom (2019) Hindi - 1080p - WEB-DL - AVC - DDP5.1 - ESub-BWTTime To Retaliate: Masoom (2019) Hindi - 1080p - WEB-DL - AVC - DDP5.1 - ESub-BWT


SINGLE DIRECT FAST LINKS

https://www.heroupload.com/c1a73b90290b9af2/Time.To.Retaliate.Masoom.2019.Hindi.WEB-DL.1080p.AVC.UNTOUCHED.DD5.1.ESub-BWT.mkv


700MB LINKS


https://www.heroupload.com/d09cd7aebcc9177c/Time.To.Retaliate.Masoom.2019.Hindi.WEB-DL.1080p.AVC.UNTOUCHED.DD5.1.ESub-BWT.part1.rar
https://www.heroupload.com/225a7f1bfd9a5545/Time.To.Retaliate.Masoom.2019.Hindi.WEB-DL.1080p.AVC.UNTOUCHED.DD5.1.ESub-BWT.part2.rar
https://www.heroupload.com/898d4c6c203ab9c2/Time.To.Retaliate.Masoom.2019.Hindi.WEB-DL.1080p.AVC.UNTOUCHED.DD5.1.ESub-BWT.part3.rar
https://www.heroupload.com/45ae09f59735a179/Time.To.Retaliate.Masoom.2019.Hindi.WEB-DL.1080p.AVC.UNTOUCHED.DD5.1.ESub-BWT.part4.rar


Buy Premium From My Links & Support Me

Add a comment

Name:* E-Mail:*
Bold Italic Underline Strike | Align left Center Align right | Insert smilies Insert link URLInsert protected URL Select color | Add Hidden Text Insert Quote Convert selected text from selection to Cyrillic (Russian) alphabet Insert spoiler
Enter the code below: *