Rss
Calendar
«    August 2019    »
MonTueWedThuFriSatSun
 1234
567891011
12131415161718
19202122232425
262728293031 
Friends of the site
» » hippi (2019) Telugu - 1080p - WEB-DL - AVC - DD5.1 - ESub-BWT
  • Author: wroser
  • |
  • Comments: 0
  • |
  • Views: 32
hippi (2019) Telugu - 1080p - WEB-DL - AVC - DD5.1 - ESub-BWT





Format                      : Matroska
Format version              : Version 4
File size                   : 4.74 GiB
Duration                    : 2 h 20 min
Overall bit rate            : 4 823 kb/s
Encoded date                : UTC 2019-07-19 09:59:14
Writing application         : mkvmerge v33.1.0 ('Primrose') 32-bit
Writing library             : libebml v1.3.7 + libmatroska v1.5.0

Video
ID                          : 1
Format                      : AVC
Format/Info                 : Advanced Video Codec
Format profile              : High@L4
Format settings             : CABAC / 4 Ref Frames
Format settings, CABAC      : Yes
Format settings, Reference  : 4 frames
Codec ID                    : V_MPEG4/ISO/AVC
Duration                    : 2 h 20 min
Bit rate                    : 4 181 kb/s
Width                       : 1 920 pixels
Height                      : 816 pixels
Display aspect ratio        : 2.35:1
Frame rate mode             : Constant
Frame rate                  : 24.000 FPS
Color space                 : YUV
Chroma subsampling          : 4:2:0
Bit depth                   : 8 bits
Scan type                   : Progressive
Bits/(Pixel*Frame)          : 0.111
Stream size                 : 4.10 GiB (87%)
Language                    : Telugu
Default                     : Yes
Forced                      : No
Color range                 : Limited
Color primaries             : BT.709
Transfer characteristics    : BT.709
Matrix coefficients         : BT.709

Audio
ID                          : 2
Format                      : E-AC-3
Format/Info                 : Enhanced AC-3
Commercial name             : Dolby Digital Plus
Codec ID                    : A_EAC3
Duration                    : 2 h 20 min
Bit rate mode               : Constant
Bit rate                    : 640 kb/s
Channel(s)                  : 6 channels
Channel layout              : L R C LFE Ls Rs
Sampling rate               : 48.0 kHz
Frame rate                  : 31.250 FPS (1536 SPF)
Compression mode            : Lossy
Stream size                 : 643 MiB (13%)
Language                    : Telugu
Service kind                : Complete Main
Default                     : Yes
Forced                      : No

Text
ID                          : 3
Format                      : UTF-8
Codec ID                    : S_TEXT/UTF8
Codec ID/Info               : UTF-8 Plain Text
Duration                    : 2 h 18 min
Bit rate                    : 62 b/s
Count of elements           : 2419
Stream size                 : 63.6 KiB (0%)
Language                    : English
Default                     : Yes
Forced                      : No



hippi (2019) Telugu - 1080p - WEB-DL - AVC - DD5.1 - ESub-BWT
hippi (2019) Telugu - 1080p - WEB-DL - AVC - DD5.1 - ESub-BWT
hippi (2019) Telugu - 1080p - WEB-DL - AVC - DD5.1 - ESub-BWT
hippi (2019) Telugu - 1080p - WEB-DL - AVC - DD5.1 - ESub-BWT
hippi (2019) Telugu - 1080p - WEB-DL - AVC - DD5.1 - ESub-BWT
hippi (2019) Telugu - 1080p - WEB-DL - AVC - DD5.1 - ESub-BWT
hippi (2019) Telugu - 1080p - WEB-DL - AVC - DD5.1 - ESub-BWT
hippi (2019) Telugu - 1080p - WEB-DL - AVC - DD5.1 - ESub-BWT
hippi (2019) Telugu - 1080p - WEB-DL - AVC - DD5.1 - ESub-BWT
hippi (2019) Telugu - 1080p - WEB-DL - AVC - DD5.1 - ESub-BWT

SINGLE DIRECT FAST LINKS

https://www.heroupload.com/1eb2d909ad9c5b6d/hippi.2019.Telugu.WEB-DL.1080p.AVC.UNTOUCHED.DD5.1.ESub-BWT.mkv


1GB LINKS



https://www.heroupload.com/6caf74edc8be9ca3/hippi.2019.Telugu.WEB-DL.1080p.AVC.UNTOUCHED.DD5.1.ESub-BWT.part1.rar
https://www.heroupload.com/9a01fd6b7dfb383d/hippi.2019.Telugu.WEB-DL.1080p.AVC.UNTOUCHED.DD5.1.ESub-BWT.part2.rar
https://www.heroupload.com/b630cf95d2172755/hippi.2019.Telugu.WEB-DL.1080p.AVC.UNTOUCHED.DD5.1.ESub-BWT.part3.rar
https://www.heroupload.com/1d071fb6faee1477/hippi.2019.Telugu.WEB-DL.1080p.AVC.UNTOUCHED.DD5.1.ESub-BWT.part4.rar
https://www.heroupload.com/22112bc36f0c118b/hippi.2019.Telugu.WEB-DL.1080p.AVC.UNTOUCHED.DD5.1.ESub-BWT.part5.rar


Buy Premium From My Links & Support Me

Add a comment

Name:* E-Mail:*
Bold Italic Underline Strike | Align left Center Align right | Insert smilies Insert link URLInsert protected URL Select color | Add Hidden Text Insert Quote Convert selected text from selection to Cyrillic (Russian) alphabet Insert spoiler
Enter the code below: *