Rss
Calendar
«    August 2019    »
MonTueWedThuFriSatSun
 1234
567891011
12131415161718
19202122232425
262728293031 
Friends of the site
» » JESSIE (2019) Telugu - 720p - WEB-DL - AVC - AAC - Esubs-BWT
  • Author: wroser
  • |
  • Comments: 0
  • |
  • Views: 22
JESSIE (2019) Telugu - 720p - WEB-DL - AVC - AAC - Esubs-BWT





Format                                   : Matroska
Format version                           : Version 4
File size                                : 967 MiB
Duration                                 : 1 h 43 min
Overall bit rate                         : 1 300 kb/s
Encoded date                             : UTC 2019-08-05 09:08:56
Writing application                      : mkvmerge v33.1.0 ('Primrose') 32-bit
Writing library                          : libebml v1.3.7 + libmatroska v1.5.0

Video
ID                                       : 1
Format                                   : AVC
Format/Info                              : Advanced Video Codec
Format profile                           : High@L3.1
Format settings                          : CABAC / 4 Ref Frames
Format settings, CABAC                   : Yes
Format settings, Reference frames        : 4 frames
Codec ID                                 : V_MPEG4/ISO/AVC
Duration                                 : 1 h 43 min
Bit rate                                 : 1 170 kb/s
Width                                    : 1 280 pixels
Height                                   : 720 pixels
Display aspect ratio                     : 16:9
Frame rate mode                          : Constant
Frame rate                               : 24.000 FPS
Color space                              : YUV
Chroma subsampling                       : 4:2:0
Bit depth                                : 8 bits
Scan type                                : Progressive
Bits/(Pixel*Frame)                       : 0.053
Stream size                              : 844 MiB (87%)
Writing library                          : x264 core 152 r2851 ba24899
Encoding settings                        : cabac=1 / ref=4 / deblock=1:0:0 / analyse=0x3:0x113 / me=hex / subme=8 / psy=1 / psy_rd=1.00:0.00 / mixed_ref=1 / me_range=16 / chroma_me=1 / trellis=2 / 8x8dct=1 / cqm=0 / deadzone=21,11 / fast_pskip=1 / chroma_qp_offset=-2 / threads=5 / lookahead_threads=1 / sliced_threads=0 / nr=0 / decimate=1 / interlaced=0 / bluray_compat=0 / constrained_intra=0 / bframes=0 / weightp=2 / keyint=72 / keyint_min=7 / scenecut=40 / intra_refresh=0 / rc_lookahead=50 / rc=cbr / mbtree=1 / bitrate=1170 / ratetol=1.0 / qcomp=0.60 / qpmin=3 / qpmax=51 / qpstep=8 / vbv_maxrate=1170 / vbv_bufsize=4680 / nal_hrd=none / filler=0 / ip_ratio=1.40 / aq=1:1.00
Language                                 : Telugu
Default                                  : Yes
Forced                                   : No

Audio
ID                                       : 2
Format                                   : AAC LC
Format/Info                              : Advanced Audio Codec Low Complexity
Codec ID                                 : A_AAC-2
Duration                                 : 1 h 43 min
Bit rate                                 : 163 kb/s
Channel(s)                               : 2 channels
Channel layout                           : L R
Sampling rate                            : 44.1 kHz
Frame rate                               : 43.066 FPS (1024 SPF)
Compression mode                         : Lossy
Delay relative to video                  : 46 ms
Stream size                              : 121 MiB (13%)
Language                                 : Telugu
Default                                  : Yes
Forced                                   : No




JESSIE (2019) Telugu - 720p - WEB-DL - AVC - AAC - Esubs-BWT
JESSIE (2019) Telugu - 720p - WEB-DL - AVC - AAC - Esubs-BWT
JESSIE (2019) Telugu - 720p - WEB-DL - AVC - AAC - Esubs-BWT
JESSIE (2019) Telugu - 720p - WEB-DL - AVC - AAC - Esubs-BWT
JESSIE (2019) Telugu - 720p - WEB-DL - AVC - AAC - Esubs-BWT
JESSIE (2019) Telugu - 720p - WEB-DL - AVC - AAC - Esubs-BWT
JESSIE (2019) Telugu - 720p - WEB-DL - AVC - AAC - Esubs-BWT
JESSIE (2019) Telugu - 720p - WEB-DL - AVC - AAC - Esubs-BWT
JESSIE (2019) Telugu - 720p - WEB-DL - AVC - AAC - Esubs-BWT

SINGLE DIRECT FAST LINKS



https://www.heroupload.com/03ac608720c0ef50/JESSIE.2019.Telugu.WEB-DL.720p.AVC.UNTOUCHED.AAC.ESub-BWT.mkv



Buy Premium From My Links & Support Me

Add a comment

Name:* E-Mail:*
Bold Italic Underline Strike | Align left Center Align right | Insert smilies Insert link URLInsert protected URL Select color | Add Hidden Text Insert Quote Convert selected text from selection to Cyrillic (Russian) alphabet Insert spoiler
Enter the code below: *