Rss
Calendar
«    August 2019    »
MonTueWedThuFriSatSun
 1234
567891011
12131415161718
19202122232425
262728293031 
Friends of the site
» » 1st Rank Raju (2019) Telugu - 1080p - WEB-DL - AVC - DD5.1 - ESub-BWT
  • Author: wroser
  • |
  • Comments: 0
  • |
  • Views: 9
1st Rank Raju (2019) Telugu - 1080p - WEB-DL - AVC - DD5.1 - ESub-BWT





Format                                   : Matroska
Format version                           : Version 4
File size                                : 8.74 GiB
Duration                                 : 2 h 7 min
Overall bit rate                         : 9 790 kb/s
Encoded date                             : UTC 2019-08-06 11:54:50
Writing application                      : mkvmerge v33.1.0 ('Primrose') 32-bit
Writing library                          : libebml v1.3.7 + libmatroska v1.5.0

Video
ID                                       : 1
Format                                   : AVC
Format/Info                              : Advanced Video Codec
Format profile                           : High@L4
Format settings                          : CABAC / 4 Ref Frames
Format settings, CABAC                   : Yes
Format settings, Reference frames        : 4 frames
Codec ID                                 : V_MPEG4/ISO/AVC
Duration                                 : 2 h 7 min
Bit rate mode                            : Constant
Bit rate                                 : 10 000 kb/s
Width                                    : 1 920 pixels
Height                                   : 816 pixels
Display aspect ratio                     : 2.35:1
Frame rate mode                          : Constant
Frame rate                               : 24.000 FPS
Color space                              : YUV
Chroma subsampling                       : 4:2:0
Bit depth                                : 8 bits
Scan type                                : Progressive
Bits/(Pixel*Frame)                       : 0.266
Stream size                              : 8.62 GiB (99%)
Language                                 : Telugu
Default                                  : Yes
Forced                                   : No
Color range                              : Limited
Color primaries                          : BT.709
Transfer characteristics                 : BT.709
Matrix coefficients                      : BT.709

Audio
ID                                       : 2
Format                                   : AAC LC
Format/Info                              : Advanced Audio Codec Low Complexity
Codec ID                                 : A_AAC-2
Duration                                 : 2 h 7 min
Bit rate                                 : 128 kb/s
Channel(s)                               : 2 channels
Channel layout                           : L R
Sampling rate                            : 48.0 kHz
Frame rate                               : 46.875 FPS (1024 SPF)
Compression mode                         : Lossy
Stream size                              : 117 MiB (1%)
Language                                 : Telugu
Default                                  : Yes
Forced                                   : No

Text
ID                                       : 3
Format                                   : UTF-8
Codec ID                                 : S_TEXT/UTF8
Codec ID/Info                            : UTF-8 Plain Text
Duration                                 : 2 h 5 min
Bit rate                                 : 100 b/s
Count of elements                        : 2145
Stream size                              : 92.4 KiB (0%)
Language                                 : English
Default                                  : Yes
Forced                                   : No


1st Rank Raju (2019) Telugu - 1080p - WEB-DL - AVC - DD5.1 - ESub-BWT
1st Rank Raju (2019) Telugu - 1080p - WEB-DL - AVC - DD5.1 - ESub-BWT
1st Rank Raju (2019) Telugu - 1080p - WEB-DL - AVC - DD5.1 - ESub-BWT
1st Rank Raju (2019) Telugu - 1080p - WEB-DL - AVC - DD5.1 - ESub-BWT
1st Rank Raju (2019) Telugu - 1080p - WEB-DL - AVC - DD5.1 - ESub-BWT
1st Rank Raju (2019) Telugu - 1080p - WEB-DL - AVC - DD5.1 - ESub-BWT

SINGLE DIRECT FAST LINKS

https://www.heroupload.com/185bda1ffae80eca/1st.Rank.Raju.2019.Telugu.WEB-DL.1080p.AVC.UNTOUCHED.AAC.ESub-BWT.mkv


1GB LINKS



https://www.heroupload.com/8ba1e3bf3a7fe226/1st.Rank.Raju.2019.Telugu.WEB-DL.1080p.AVC.UNTOUCHED.AAC.ESub-BWT.part01.rar
https://www.heroupload.com/f230e4e1392d9076/1st.Rank.Raju.2019.Telugu.WEB-DL.1080p.AVC.UNTOUCHED.AAC.ESub-BWT.part02.rar
https://www.heroupload.com/8876fb4152c77424/1st.Rank.Raju.2019.Telugu.WEB-DL.1080p.AVC.UNTOUCHED.AAC.ESub-BWT.part03.rar
https://www.heroupload.com/9d50129deb142fdf/1st.Rank.Raju.2019.Telugu.WEB-DL.1080p.AVC.UNTOUCHED.AAC.ESub-BWT.part04.rar
https://www.heroupload.com/2e275214d14308c2/1st.Rank.Raju.2019.Telugu.WEB-DL.1080p.AVC.UNTOUCHED.AAC.ESub-BWT.part05.rar
https://www.heroupload.com/cb6dae825a379b7e/1st.Rank.Raju.2019.Telugu.WEB-DL.1080p.AVC.UNTOUCHED.AAC.ESub-BWT.part06.rar
https://www.heroupload.com/35cd406718001fc2/1st.Rank.Raju.2019.Telugu.WEB-DL.1080p.AVC.UNTOUCHED.AAC.ESub-BWT.part07.rar
https://www.heroupload.com/cbd1ce5e40152920/1st.Rank.Raju.2019.Telugu.WEB-DL.1080p.AVC.UNTOUCHED.AAC.ESub-BWT.part08.rar
https://www.heroupload.com/6d6ff40a59c3e350/1st.Rank.Raju.2019.Telugu.WEB-DL.1080p.AVC.UNTOUCHED.AAC.ESub-BWT.part09.rar




Buy Premium From My Links & Support Me

Add a comment

Name:* E-Mail:*
Bold Italic Underline Strike | Align left Center Align right | Insert smilies Insert link URLInsert protected URL Select color | Add Hidden Text Insert Quote Convert selected text from selection to Cyrillic (Russian) alphabet Insert spoiler
Enter the code below: *