Rss
Calendar
«    August 2019    »
MonTueWedThuFriSatSun
 1234
567891011
12131415161718
19202122232425
262728293031 
Friends of the site
» » Game Over (2019) Tamil - 1080p - WEB-HD - AVC - AAC - ESub-BWT
  • Author: wroser
  • |
  • Comments: 0
  • |
  • Views: 7
Game Over (2019) Tamil - 1080p - WEB-HD - AVC - AAC - ESub-BWT





Format                                   : Matroska
Format version                           : Version 4
File size                                : 3.52 GiB
Duration                                 : 1 h 37 min
Overall bit rate                         : 5 172 kb/s
Encoded date                             : UTC 2019-08-09 11:52:37
Writing application                      : mkvmerge v35.0.0 ('All The Love In The World') 64-bit
Writing library                          : libebml v1.3.9 + libmatroska v1.5.2

Video
ID                                       : 1
Format                                   : AVC
Format/Info                              : Advanced Video Codec
Format profile                           : High@L4
Format settings                          : CABAC / 4 Ref Frames
Format settings, CABAC                   : Yes
Format settings, Reference frames        : 4 frames
Codec ID                                 : V_MPEG4/ISO/AVC
Duration                                 : 1 h 37 min
Bit rate                                 : 4 973 kb/s
Width                                    : 1 920 pixels
Height                                   : 816 pixels
Display aspect ratio                     : 2.35:1
Frame rate mode                          : Constant
Frame rate                               : 25.000 FPS
Color space                              : YUV
Chroma subsampling                       : 4:2:0
Bit depth                                : 8 bits
Scan type                                : Progressive
Bits/(Pixel*Frame)                       : 0.127
Stream size                              : 3.38 GiB (96%)
Language                                 : Tamil
Default                                  : Yes
Forced                                   : No
Color range                              : Limited
Color primaries                          : BT.709
Transfer characteristics                 : BT.709
Matrix coefficients                      : BT.709

Audio
ID                                       : 2
Format                                   : AAC LC
Format/Info                              : Advanced Audio Codec Low Complexity
Codec ID                                 : A_AAC-2
Duration                                 : 1 h 37 min
Bit rate                                 : 196 kb/s
Channel(s)                               : 2 channels
Channel layout                           : L R
Sampling rate                            : 48.0 kHz
Frame rate                               : 46.875 FPS (1024 SPF)
Compression mode                         : Lossy
Delay relative to video                  : -69 ms
Stream size                              : 136 MiB (4%)
Language                                 : Tamil
Default                                  : Yes
Forced                                   : No



Game Over (2019) Tamil - 1080p - WEB-HD - AVC - AAC - ESub-BWT
Game Over (2019) Tamil - 1080p - WEB-HD - AVC - AAC - ESub-BWT
Game Over (2019) Tamil - 1080p - WEB-HD - AVC - AAC - ESub-BWT
Game Over (2019) Tamil - 1080p - WEB-HD - AVC - AAC - ESub-BWT
Game Over (2019) Tamil - 1080p - WEB-HD - AVC - AAC - ESub-BWT
Game Over (2019) Tamil - 1080p - WEB-HD - AVC - AAC - ESub-BWT
Game Over (2019) Tamil - 1080p - WEB-HD - AVC - AAC - ESub-BWT

SINGLE DIRECT FAST LINKS

https://www.heroupload.com/cc36c572817a1401/Game.Over.2019.Tamil.Org.Vers.WEB-HD.1080p.AVC.UNTOUCHED.AAC.ESub-BWT.mkv


1GB LINKS


https://www.heroupload.com/189a8ce8711130af/Game.Over.2019.Tamil.Org.Vers.WEB-HD.1080p.AVC.UNTOUCHED.AAC.ESub-BWT.part1.rar
https://www.heroupload.com/35ef60e95c4f6c0d/Game.Over.2019.Tamil.Org.Vers.WEB-HD.1080p.AVC.UNTOUCHED.AAC.ESub-BWT.part2.rar
https://www.heroupload.com/07ba13cf60bd5154/Game.Over.2019.Tamil.Org.Vers.WEB-HD.1080p.AVC.UNTOUCHED.AAC.ESub-BWT.part3.rar
https://www.heroupload.com/6bbff5dfbf19b34e/Game.Over.2019.Tamil.Org.Vers.WEB-HD.1080p.AVC.UNTOUCHED.AAC.ESub-BWT.part4.rar
https://www.heroupload.com/9c9531602670b007/Game.Over.2019.Tamil.Org.Vers.WEB-HD.1080p.AVC.UNTOUCHED.AAC.ESub-BWT.srt


Buy Premium From My Links & Support Me

Add a comment

Name:* E-Mail:*
Bold Italic Underline Strike | Align left Center Align right | Insert smilies Insert link URLInsert protected URL Select color | Add Hidden Text Insert Quote Convert selected text from selection to Cyrillic (Russian) alphabet Insert spoiler
Enter the code below: *