Rss
Calendar
«    August 2019    »
MonTueWedThuFriSatSun
 1234
567891011
12131415161718
19202122232425
262728293031 
Friends of the site
» » Mr. Local (2019) Tamil - 1080p - WEB-HD - AVC - AAC - ESub-BWT
  • Author: wroser
  • |
  • Comments: 0
  • |
  • Views: 12
Mr. Local (2019) Tamil - 1080p - WEB-HD - AVC - AAC - ESub-BWT








Format                                   : Matroska
Format version                           : Version 4
File size                                : 5.65 GiB
Duration                                 : 2 h 34 min
Overall bit rate                         : 5 249 kb/s
Encoded date                             : UTC 2019-08-09 11:43:32
Writing application                      : mkvmerge v35.0.0 ('All The Love In The World') 64-bit
Writing library                          : libebml v1.3.9 + libmatroska v1.5.2

Video
ID                                       : 1
Format                                   : AVC
Format/Info                              : Advanced Video Codec
Format profile                           : Baseline@L4
Format settings                          : 1 Ref Frames
Format settings, CABAC                   : No
Format settings, Reference frames        : 1 frame
Codec ID                                 : V_MPEG4/ISO/AVC
Duration                                 : 2 h 34 min
Bit rate mode                            : Constant
Bit rate                                 : 5 120 kb/s
Width                                    : 1 920 pixels
Height                                   : 1 080 pixels
Display aspect ratio                     : 16:9
Frame rate mode                          : Constant
Frame rate                               : 25.000 FPS
Color space                              : YUV
Chroma subsampling                       : 4:2:0
Bit depth                                : 8 bits
Scan type                                : Progressive
Bits/(Pixel*Frame)                       : 0.099
Stream size                              : 5.51 GiB (98%)
Language                                 : Tamil
Default                                  : Yes
Forced                                   : No

Audio
ID                                       : 2
Format                                   : AAC LC
Format/Info                              : Advanced Audio Codec Low Complexity
Codec ID                                 : A_AAC-2
Duration                                 : 2 h 34 min
Bit rate                                 : 128 kb/s
Channel(s)                               : 2 channels
Channel layout                           : L R
Sampling rate                            : 48.0 kHz
Frame rate                               : 46.875 FPS (1024 SPF)
Compression mode                         : Lossy
Stream size                              : 141 MiB (2%)
Language                                 : Tamil
Default                                  : Yes
Forced                                   : No

Text
ID                                       : 3
Format                                   : UTF-8
Codec ID                                 : S_TEXT/UTF8
Codec ID/Info                            : UTF-8 Plain Text
Duration                                 : 2 h 29 min
Bit rate                                 : 81 b/s
Count of elements                        : 3217
Stream size                              : 89.3 KiB (0%)
Language                                 : English
Default                                  : No
Forced                                   : No




Mr. Local (2019) Tamil - 1080p - WEB-HD - AVC - AAC - ESub-BWT
Mr. Local (2019) Tamil - 1080p - WEB-HD - AVC - AAC - ESub-BWT
Mr. Local (2019) Tamil - 1080p - WEB-HD - AVC - AAC - ESub-BWT
Mr. Local (2019) Tamil - 1080p - WEB-HD - AVC - AAC - ESub-BWT
Mr. Local (2019) Tamil - 1080p - WEB-HD - AVC - AAC - ESub-BWT
Mr. Local (2019) Tamil - 1080p - WEB-HD - AVC - AAC - ESub-BWT
Mr. Local (2019) Tamil - 1080p - WEB-HD - AVC - AAC - ESub-BWT
Mr. Local (2019) Tamil - 1080p - WEB-HD - AVC - AAC - ESub-BWT
Mr. Local (2019) Tamil - 1080p - WEB-HD - AVC - AAC - ESub-BWT

SINGLE DIRECT FAST LINKS

https://www.heroupload.com/9e0ddbbc75f7781a/Mr.Local.2019.Tamil.WEB-DL.1080p.AVC.UNTOUCHED.AAC.ESub-BWT.mkv


1GB LINKS



https://www.heroupload.com/cbd0c6e900ca14df/Mr.Local.2019.Tamil.WEB-DL.1080p.AVC.UNTOUCHED.AAC.ESub-BWT.part1.rar
https://www.heroupload.com/2bbc443044da9ef5/Mr.Local.2019.Tamil.WEB-DL.1080p.AVC.UNTOUCHED.AAC.ESub-BWT.part2.rar
https://www.heroupload.com/cc9a444f818b131e/Mr.Local.2019.Tamil.WEB-DL.1080p.AVC.UNTOUCHED.AAC.ESub-BWT.part3.rar
https://www.heroupload.com/ce73f3fa9160e7c7/Mr.Local.2019.Tamil.WEB-DL.1080p.AVC.UNTOUCHED.AAC.ESub-BWT.part4.rar
https://www.heroupload.com/b71950525d47a47f/Mr.Local.2019.Tamil.WEB-DL.1080p.AVC.UNTOUCHED.AAC.ESub-BWT.part5.rar
https://www.heroupload.com/bc7cbf5fcb96cae5/Mr.Local.2019.Tamil.WEB-DL.1080p.AVC.UNTOUCHED.AAC.ESub-BWT.part6.rar





Buy Premium From My Links & Support Me

Add a comment

Name:* E-Mail:*
Bold Italic Underline Strike | Align left Center Align right | Insert smilies Insert link URLInsert protected URL Select color | Add Hidden Text Insert Quote Convert selected text from selection to Cyrillic (Russian) alphabet Insert spoiler
Enter the code below: *