Rss
Calendar
«    August 2019    »
MonTueWedThuFriSatSun
 1234
567891011
12131415161718
19202122232425
262728293031 
Friends of the site
» » Vennila Kabaddi Kuzhu 2 (2019) Tamil - 1080p - WEB-DL - AVC - DD5.1 - ESub-BWT
  • Author: wroser
  • |
  • Comments: 0
  • |
  • Views: 12
Vennila Kabaddi Kuzhu 2 (2019) Tamil - 1080p - WEB-DL - AVC - DD5.1 - ESub-BWT






Format                                   : MPEG-4
Format profile                           : Base Media / Version 2
Codec ID                                 : mp42 (mp42/mp41)
File size                                : 7.32 GiB
Duration                                 : 2 h 20 min
Overall bit rate                         : 7 469 kb/s
Encoded date                             : UTC 2019-08-05 17:07:11
Tagged date                              : UTC 2019-08-05 17:13:08
TIM                                      : 00:00:00:00
TSC                                      : 24
TSZ                                      : 1

Video
ID                                       : 1
Format                                   : AVC
Format/Info                              : Advanced Video Codec
Format profile                           : Main@L4.1
Format settings                          : CABAC / 4 Ref Frames
Format settings, CABAC                   : Yes
Format settings, Reference frames        : 4 frames
Codec ID                                 : avc1
Codec ID/Info                            : Advanced Video Coding
Duration                                 : 2 h 20 min
Bit rate                                 : 6 955 kb/s
Width                                    : 1 920 pixels
Height                                   : 1 080 pixels
Display aspect ratio                     : 16:9
Frame rate mode                          : Constant
Frame rate                               : 24.000 FPS
Color space                              : YUV
Chroma subsampling                       : 4:2:0
Bit depth                                : 8 bits
Scan type                                : Progressive
Bits/(Pixel*Frame)                       : 0.140
Stream size                              : 6.82 GiB (93%)
Language                                 : English
Encoded date                             : UTC 2019-08-05 17:07:12
Tagged date                              : UTC 2019-08-05 17:07:12
Color range                              : Limited
Color primaries                          : BT.709
Transfer characteristics                 : BT.709
Matrix coefficients                      : BT.709
Codec configuration box                  : avcC

Audio
ID                                       : 2
Format                                   : AC-3
Format/Info                              : Audio Coding 3
Commercial name                          : Dolby Digital
Codec ID                                 : ac-3
Duration                                 : 2 h 20 min
Source duration                          : 2 h 20 min
Bit rate mode                            : Constant
Bit rate                                 : 512 kb/s
Channel(s)                               : 6 channels
Channel layout                           : L R C LFE Ls Rs
Sampling rate                            : 48.0 kHz
Frame rate                               : 31.250 FPS (1536 SPF)
Bit depth                                : 16 bits
Compression mode                         : Lossy
Stream size                              : 514 MiB (7%)
Source stream size                       : 514 MiB (7%)
Language                                 : English
Service kind                             : Complete Main
Encoded date                             : UTC 2019-08-05 17:07:12
Tagged date                              : UTC 2019-08-05 17:07:12



Vennila Kabaddi Kuzhu 2 (2019) Tamil - 1080p - WEB-DL - AVC - DD5.1 - ESub-BWT
Vennila Kabaddi Kuzhu 2 (2019) Tamil - 1080p - WEB-DL - AVC - DD5.1 - ESub-BWT
Vennila Kabaddi Kuzhu 2 (2019) Tamil - 1080p - WEB-DL - AVC - DD5.1 - ESub-BWT
Vennila Kabaddi Kuzhu 2 (2019) Tamil - 1080p - WEB-DL - AVC - DD5.1 - ESub-BWT
Vennila Kabaddi Kuzhu 2 (2019) Tamil - 1080p - WEB-DL - AVC - DD5.1 - ESub-BWT
Vennila Kabaddi Kuzhu 2 (2019) Tamil - 1080p - WEB-DL - AVC - DD5.1 - ESub-BWT
Vennila Kabaddi Kuzhu 2 (2019) Tamil - 1080p - WEB-DL - AVC - DD5.1 - ESub-BWT
Vennila Kabaddi Kuzhu 2 (2019) Tamil - 1080p - WEB-DL - AVC - DD5.1 - ESub-BWT

SINGLE DIRECT FAST LINKS

https://www.heroupload.com/0478b10b227a9434/Vennila.Kabaddi.Kuzhu.2.2019.Tamil.WEB-DL.1080p.AVC.UNTOUCHED.DD5.1.ESub-BWT.mp4


1GB LINKS



https://www.heroupload.com/996db5a15a8238d0/Vennila.Kabaddi.Kuzhu.2.2019.Tamil.WEB-DL.1080p.AVC.UNTOUCHED.DD5.1.ESub-BWT.part1.rar
https://www.heroupload.com/63898f28e095f7be/Vennila.Kabaddi.Kuzhu.2.2019.Tamil.WEB-DL.1080p.AVC.UNTOUCHED.DD5.1.ESub-BWT.part2.rar
https://www.heroupload.com/49ad7053b52bc825/Vennila.Kabaddi.Kuzhu.2.2019.Tamil.WEB-DL.1080p.AVC.UNTOUCHED.DD5.1.ESub-BWT.part3.rar
https://www.heroupload.com/f907cc8ab19e4deb/Vennila.Kabaddi.Kuzhu.2.2019.Tamil.WEB-DL.1080p.AVC.UNTOUCHED.DD5.1.ESub-BWT.part4.rar
https://www.heroupload.com/9ee1db72a8013e4f/Vennila.Kabaddi.Kuzhu.2.2019.Tamil.WEB-DL.1080p.AVC.UNTOUCHED.DD5.1.ESub-BWT.part5.rar
https://www.heroupload.com/d03d419abb94f52f/Vennila.Kabaddi.Kuzhu.2.2019.Tamil.WEB-DL.1080p.AVC.UNTOUCHED.DD5.1.ESub-BWT.part6.rar
https://www.heroupload.com/a928a7bc0c6205b6/Vennila.Kabaddi.Kuzhu.2.2019.Tamil.WEB-DL.1080p.AVC.UNTOUCHED.DD5.1.ESub-BWT.part7.rar
https://www.heroupload.com/d136d9653260d5fe/Vennila.Kabaddi.Kuzhu.2.2019.Tamil.WEB-DL.1080p.AVC.UNTOUCHED.DD5.1.ESub-BWT.part8.rar






Buy Premium From My Links & Support Me

Add a comment

Name:* E-Mail:*
Bold Italic Underline Strike | Align left Center Align right | Insert smilies Insert link URLInsert protected URL Select color | Add Hidden Text Insert Quote Convert selected text from selection to Cyrillic (Russian) alphabet Insert spoiler
Enter the code below: *