Rss
Calendar
«    August 2019    »
MonTueWedThuFriSatSun
 1234
567891011
12131415161718
19202122232425
262728293031 
Friends of the site
» » Agent Sai Srinivasa Athreya (2019) Telugu - 720p - HDRip - x264 - DD5.1 - ESub-BWT
  • Author: wroser
  • |
  • Comments: 0
  • |
  • Views: 10
Agent Sai Srinivasa Athreya (2019) Telugu - 720p - HDRip - x264 - DD5.1 - ESub-BWT






Format                                   : Matroska
Format version                           : Version 4
File size                                : 1.23 GiB
Duration                                 : 2 h 24 min
Overall bit rate                         : 1 218 kb/s
Encoded date                             : UTC 2019-08-09 11:40:41
Writing application                      : mkvmerge v35.0.0 ('All The Love In The World') 64-bit
Writing library                          : libebml v1.3.9 + libmatroska v1.5.2

Video
ID                                       : 1
Format                                   : AVC
Format/Info                              : Advanced Video Codec
Format profile                           : High@L3.1
Format settings                          : CABAC / 5 Ref Frames
Format settings, CABAC                   : Yes
Format settings, Reference frames        : 5 frames
Codec ID                                 : V_MPEG4/ISO/AVC
Duration                                 : 2 h 24 min
Bit rate                                 : 1 024 kb/s
Width                                    : 1 280 pixels
Height                                   : 528 pixels
Display aspect ratio                     : 2.40:1
Original display aspect ratio            : 2.40:1
Frame rate mode                          : Constant
Frame rate                               : 24.000 FPS
Color space                              : YUV
Chroma subsampling                       : 4:2:0
Bit depth                                : 8 bits
Scan type                                : Progressive
Bits/(Pixel*Frame)                       : 0.063
Stream size                              : 1.04 GiB (84%)
Language                                 : Telugu
Default                                  : Yes
Forced                                   : No
Color range                              : Limited
Color primaries                          : BT.709
Transfer characteristics                 : BT.709
Matrix coefficients                      : BT.709

Audio
ID                                       : 2
Format                                   : E-AC-3
Format/Info                              : Enhanced AC-3
Commercial name                          : Dolby Digital Plus
Codec ID                                 : A_EAC3
Duration                                 : 2 h 24 min
Bit rate mode                            : Constant
Bit rate                                 : 192 kb/s
Channel(s)                               : 6 channels
Channel layout                           : L R C LFE Ls Rs
Sampling rate                            : 48.0 kHz
Frame rate                               : 31.250 FPS (1536 SPF)
Compression mode                         : Lossy
Stream size                              : 199 MiB (16%)
Language                                 : Telugu
Service kind                             : Complete Main
Default                                  : Yes
Forced                                   : No

Text
ID                                       : 3
Format                                   : UTF-8
Codec ID                                 : S_TEXT/UTF8
Codec ID/Info                            : UTF-8 Plain Text
Duration                                 : 2 h 21 min
Bit rate                                 : 86 b/s
Count of elements                        : 2819
Stream size                              : 89.5 KiB (0%)
Language                                 : English
Default                                  : Yes
Forced                                   : No




Agent Sai Srinivasa Athreya (2019) Telugu - 720p - HDRip - x264 - DD5.1 - ESub-BWT
Agent Sai Srinivasa Athreya (2019) Telugu - 720p - HDRip - x264 - DD5.1 - ESub-BWT
Agent Sai Srinivasa Athreya (2019) Telugu - 720p - HDRip - x264 - DD5.1 - ESub-BWT
Agent Sai Srinivasa Athreya (2019) Telugu - 720p - HDRip - x264 - DD5.1 - ESub-BWT
Agent Sai Srinivasa Athreya (2019) Telugu - 720p - HDRip - x264 - DD5.1 - ESub-BWT
Agent Sai Srinivasa Athreya (2019) Telugu - 720p - HDRip - x264 - DD5.1 - ESub-BWT
Agent Sai Srinivasa Athreya (2019) Telugu - 720p - HDRip - x264 - DD5.1 - ESub-BWT

SINGLE DIRECT FAST LINKS



https://www.heroupload.com/72eecaca3c3c5616/Agent.Sai.Srinivasa.Athreya.2019.Telugu.HDRip.720p.x264.DD5..ESub-BWT.mkv



Buy Premium From My Links & Support Me

Add a comment

Name:* E-Mail:*
Bold Italic Underline Strike | Align left Center Align right | Insert smilies Insert link URLInsert protected URL Select color | Add Hidden Text Insert Quote Convert selected text from selection to Cyrillic (Russian) alphabet Insert spoiler
Enter the code below: *