Rss
Calendar
«    August 2019    »
MonTueWedThuFriSatSun
 1234
567891011
12131415161718
19202122232425
262728293031 
Friends of the site
» » Agent Sai Srinivasa Athreya (2019) Telugu - 1080p - WEB-DL - AVC - DD5.1 - ESub-BWT
  • Author: wroser
  • |
  • Comments: 0
  • |
  • Views: 11
Agent Sai Srinivasa Athreya (2019) Telugu - 1080p - WEB-DL - AVC - DD5.1 - ESub-BWT




Format                                   : Matroska
Format version                           : Version 4
File size                                : 8.29 GiB
Duration                                 : 2 h 24 min
Overall bit rate                         : 8 192 kb/s
Encoded date                             : UTC 2019-08-09 11:41:06
Writing application                      : mkvmerge v35.0.0 ('All The Love In The World') 64-bit
Writing library                          : libebml v1.3.9 + libmatroska v1.5.2

Video
ID                                       : 1
Format                                   : AVC
Format/Info                              : Advanced Video Codec
Format profile                           : High@L4
Format settings                          : CABAC / 4 Ref Frames
Format settings, CABAC                   : Yes
Format settings, Reference frames        : 4 frames
Codec ID                                 : V_MPEG4/ISO/AVC
Duration                                 : 2 h 24 min
Bit rate mode                            : Constant
Bit rate                                 : 7 550 kb/s
Nominal bit rate                         : 10 000 kb/s
Width                                    : 1 920 pixels
Height                                   : 800 pixels
Display aspect ratio                     : 2.40:1
Frame rate mode                          : Constant
Frame rate                               : 24.000 FPS
Color space                              : YUV
Chroma subsampling                       : 4:2:0
Bit depth                                : 8 bits
Scan type                                : Progressive
Bits/(Pixel*Frame)                       : 0.205
Stream size                              : 7.64 GiB (92%)
Language                                 : Telugu
Default                                  : Yes
Forced                                   : No
Color range                              : Limited
Color primaries                          : BT.709
Transfer characteristics                 : BT.709
Matrix coefficients                      : BT.709

Audio
ID                                       : 2
Format                                   : E-AC-3
Format/Info                              : Enhanced AC-3
Commercial name                          : Dolby Digital Plus
Codec ID                                 : A_EAC3
Duration                                 : 2 h 24 min
Bit rate mode                            : Constant
Bit rate                                 : 640 kb/s
Channel(s)                               : 6 channels
Channel layout                           : L R C LFE Ls Rs
Sampling rate                            : 48.0 kHz
Frame rate                               : 31.250 FPS (1536 SPF)
Compression mode                         : Lossy
Stream size                              : 663 MiB (8%)
Language                                 : Telugu
Service kind                             : Complete Main
Default                                  : Yes
Forced                                   : No

Text
ID                                       : 3
Format                                   : UTF-8
Codec ID                                 : S_TEXT/UTF8
Codec ID/Info                            : UTF-8 Plain Text
Duration                                 : 2 h 21 min
Bit rate                                 : 86 b/s
Count of elements                        : 2819
Stream size                              : 89.5 KiB (0%)
Language                                 : English
Default                                  : Yes
Forced                                   : No



Agent Sai Srinivasa Athreya (2019) Telugu - 1080p - WEB-DL - AVC - DD5.1 - ESub-BWT
Agent Sai Srinivasa Athreya (2019) Telugu - 1080p - WEB-DL - AVC - DD5.1 - ESub-BWT
Agent Sai Srinivasa Athreya (2019) Telugu - 1080p - WEB-DL - AVC - DD5.1 - ESub-BWT
Agent Sai Srinivasa Athreya (2019) Telugu - 1080p - WEB-DL - AVC - DD5.1 - ESub-BWT
Agent Sai Srinivasa Athreya (2019) Telugu - 1080p - WEB-DL - AVC - DD5.1 - ESub-BWT
Agent Sai Srinivasa Athreya (2019) Telugu - 1080p - WEB-DL - AVC - DD5.1 - ESub-BWT
Agent Sai Srinivasa Athreya (2019) Telugu - 1080p - WEB-DL - AVC - DD5.1 - ESub-BWT

SINGLE DIRECT FAST LINKS

https://www.heroupload.com/f8b32392e36fb8a6/Agent.Sai.Srinivasa.Athreya.2019.Telugu.WEB-DL.1080p.AVC.UNTOUCHED.DD5.1.ESub-BWT.mkv


1GB LINKS



https://www.heroupload.com/97199d4b94d6417a/Agent.Sai.Srinivasa.Athreya.2019.Telugu.WEB-DL.1080p.AVC.UNTOUCHED.DD5.1.ESub-BWT.part01.rar
https://www.heroupload.com/44e9e0a854c0c572/Agent.Sai.Srinivasa.Athreya.2019.Telugu.WEB-DL.1080p.AVC.UNTOUCHED.DD5.1.ESub-BWT.part02.rar
https://www.heroupload.com/575e6c6db9020ce4/Agent.Sai.Srinivasa.Athreya.2019.Telugu.WEB-DL.1080p.AVC.UNTOUCHED.DD5.1.ESub-BWT.part03.rar
https://www.heroupload.com/003e0b213cc463d2/Agent.Sai.Srinivasa.Athreya.2019.Telugu.WEB-DL.1080p.AVC.UNTOUCHED.DD5.1.ESub-BWT.part04.rar
https://www.heroupload.com/f93776a1effc619b/Agent.Sai.Srinivasa.Athreya.2019.Telugu.WEB-DL.1080p.AVC.UNTOUCHED.DD5.1.ESub-BWT.part05.rar
https://www.heroupload.com/dd47f37b19629089/Agent.Sai.Srinivasa.Athreya.2019.Telugu.WEB-DL.1080p.AVC.UNTOUCHED.DD5.1.ESub-BWT.part06.rar
https://www.heroupload.com/39d3bf0fa8d62bd9/Agent.Sai.Srinivasa.Athreya.2019.Telugu.WEB-DL.1080p.AVC.UNTOUCHED.DD5.1.ESub-BWT.part07.rar
https://www.heroupload.com/5dfade06fde809ad/Agent.Sai.Srinivasa.Athreya.2019.Telugu.WEB-DL.1080p.AVC.UNTOUCHED.DD5.1.ESub-BWT.part08.rar
https://www.heroupload.com/4f8fe42fccd441d9/Agent.Sai.Srinivasa.Athreya.2019.Telugu.WEB-DL.1080p.AVC.UNTOUCHED.DD5.1.ESub-BWT.part09.rar








Buy Premium From My Links & Support Me

Add a comment

Name:* E-Mail:*
Bold Italic Underline Strike | Align left Center Align right | Insert smilies Insert link URLInsert protected URL Select color | Add Hidden Text Insert Quote Convert selected text from selection to Cyrillic (Russian) alphabet Insert spoiler
Enter the code below: *